Skip to main content

Monks of Doom Live at Hemlock Tavern on 2010-06-01




Disc 1 (43:41.02)
01. intro
02. Tanguedia (Reprise)
03. Going South
04. Calvary
05. Vs Montana
06. Light In The Sky
07. Vaporize Your Crystals
08. In Anticipation Of The Pope
09. The Traveler

Disc 2 (49:07.18)
10. Heiroglyphic
11. Chang
12. Unexplained Murders
13. banter - David, he was a real asshole!
14. Poison
15. Riverbed
16. Let's Split
17. Ukrainian Technological Faith Dance
18. Oh Well
19. encore break
20. Fur Immer


Collection MonksofDoom
Band/Artist Monks of Doom
Venue Hemlock Tavern
Location San Francisco CA USA

Source DPA 4061 mics > Sony PCM-D50 > WAV @48/24
Lineage WAV > Digital Performer 4 (adjust levels with volume tool & limiter, output at 44.1/16) > WAV > Audacity 1.3.12 (tracking & fades) > WAVs > xACT 1.71 > FLAC level 8 lossless encoding
Taped by Seteeet
Transferred by morst

Notes

Mics were on a mini tripod hung on the rear wall on some office clips about 8 feet above the floor.

SHNTOOL:
length expanded size cdr WAVE problems fmt ratio filename
1:29.27 15763148 B --- -- ---xx MoD2010-06-01d1t01.flac
3:18.68 35087180 B --- -- ---xx MoD2010-06-01d1t02.flac
7:00.13 74118620 B --- -- ---xx MoD2010-06-01d1t03.flac
6:04.56 64341356 B --- -- ---xx MoD2010-06-01d1t04.flac
5:10.24 54740492 B --- -- ---xx MoD2010-06-01d1t05.flac
5:41.26 60213596 B --- -- ---xx MoD2010-06-01d1t06.flac
3:59.05 42171404 B --- -- ---xx MoD2010-06-01d1t07.flac
3:49.13 40426220 B --- -- ---xx MoD2010-06-01d1t08.flac
7:07.70 75487484 B --- -- ---xx MoD2010-06-01d1t09.flac
4:42.42 49843628 B --- -- ---xx MoD2010-06-01d2t01.flac
4:04.04 43051052 B --- -- ---xx MoD2010-06-01d2t02.flac
4:19.23 45741740 B --- -- ---xx MoD2010-06-01d2t03.flac
2:00.64 21318572 B --- -- ---xx MoD2010-06-01d2t04.flac
7:14.29 76625852 B --- -- ---xx MoD2010-06-01d2t05.flac
3:35.00 37926044 B --- -- ---xx MoD2010-06-01d2t06.flac
1:34.49 16696892 B --- -- ---xx MoD2010-06-01d2t07.flac
4:36.51 48806396 B --- -- ---xx MoD2010-06-01d2t08.flac
4:22.72 46386188 B --- -- ---xx MoD2010-06-01d2t09.flac
1:16.41 13502876 B --- -- ---xx MoD2010-06-01d2t10.flac
11:20.18 119994380 B --- -- ---xx MoD2010-06-01d2t11.flac
92:48.20 982243120 B 0.5013 (20 files)

Reviews

Reviewer: mick dillingham - - August 1, 2010
Subject: monks magic
a very nice recording of this truely unique and classic combo, the playing is as you would expect masterful and powerful. The Monks are currently working on their first album of original material in over 18 years, fantastic news
DOWNLOAD OPTIONS
In Collection
Monks of Doom
In Collection
Live Music Archive
Uploaded by
morst
on 8/1/2010
Views
707
Favorites
1
Reviews
1
PEOPLE ALSO FOUND
Monks of Doom
by Monks of Doom
780
1
3
( 3 reviews )
Source: Neumann KM-140 > Beyer MV100 > Sony SBM-1 > Sony D8
Monks of Doom
by Monks of Doom
2,280
1
0
Source: Stereo mic > Sony D3 > MCAS
Monks of Doom
by Monks of Doom
7,343
2
3
( 3 reviews )
Source: AUD > MD
Monks of Doom
by Monks of Doom
4,887
2
2
( 2 reviews )
Source: AUD > MD
Monks of Doom
by Monks of Doom
1,366
1
0
Source: SBD?
Monks of Doom
by Monks of Doom
1,273
1
0
Source: AKG C522MS ("The Pickle Mic") > Grace Lunatec V3 (mic preamp & A>D converter) + Soundcraft 800B SBD > Edirol R44 > WAVs @48kHz/24bit
Monks of Doom
by Monks of Doom
145
1
0
Source: DPA 4061 mics > Sony PCM-D50 > WAV @48/24
Monks of Doom
by Monks of Doom
2,822
1
2
( 2 reviews )
Source: SBD?
Monks of Doom
by Monks of Doom
169
1
0
Source: DPA 4061 mics > Sony PCM-D50 > WAV @48/24
Monks of Doom
by Monks of Doom
706
1
1
( 1 reviews )
Source: DPA 4061 mics > Sony PCM-D50 > WAV @48/24